#TITLE:ChuChu Rocket;
#SUBTITLE:- Cat and Mouse [OC Remix];
#ARTIST:Sonic Team;
#TITLETRANSLIT:;
#SUBTITLETRANSLIT:;
#ARTISTTRANSLIT:;
#CREDIT:;
#BANNER:ChuChuRocketBN.png;
#BACKGROUND:ChuChuRocketBG.png;
#LYRICSPATH:;
#CDTITLE:;
#MUSIC:ChuChu Rocket - Cat And Mouse Remix.mp3;
#OFFSET:0.270;
#SAMPLESTART:76.520;
#SAMPLELENGTH:12.000;
#SELECTABLE:YES;
#BPMS:0.000=188.000;
#STOPS:;
#BGCHANGES:;
// cache tags:
#FIRSTBEAT:9.000;
#LASTBEAT:308.000;
#SONGFILENAME:Songs/Music V.I.P ^_^/Chu Chu Rocket Mix/Chu Chu Rocket Remix.sm;
#HASMUSIC:1;
#HASBANNER:1;
#MUSICLENGTH:98.144;
// end cache tags

//---------------dance-single - BASIC----------------
#NOTES:
     dance-single:
     BASIC:
     Easy:
     4:
     0.371,0.392,0.153,0.041,0.000,236.000,15.000,4.000,0.000,0.000:

0000
0000
0000
0000
,
0000
0000
0000
0000
,
0000
1000
0100
1000
,
1000
0001
0010
0001
,
0001
0100
0100
1000
,
0100
0010
0010
0001
,
0010
1000
1000
0001
,
1000
0001
0001
1000
,
0001
0010
0010
0100
,
0100
0000
0010
0000
0000
0010
0000
0000
,
1000
0010
0010
0100
,
0100
0001
0001
1000
,
1000
1001
0000
0001
,
0000
0100
0000
1001
,
0000
0001
0100
0001
,
0100
1000
0100
1000
,
0100
1001
0000
0010
,
0000
0100
0000
1001
,
0000
1000
0001
0010
,
0010
0001
1000
0100
,
0100
0101
0000
0001
,
0000
0100
0000
0011
,
0000
0001
1000
0010
,
0010
1000
0001
0100
,
0100
1100
0000
0100
,
0000
1000
0000
1010
,
0000
1000
0100
0010
,
0001
0000
0001
0000
,
0010
0100
0010
0100
,
0001
1000
0001
1000
,
0100
0001
0001
0010
,
0010
0000
0100
0000
,
1000
0001
1000
0001
,
0100
0010
0100
0010
,
1000
0110
0001
0001
,
0001
1000
1000
1000
,
0000
0010
0100
0010
,
0000
0100
0010
0100
,
0000
0001
0001
1000
,
1000
0010
0010
0001
,
0000
0010
0100
0010
,
0000
0010
0100
0010
,
0001
1000
0001
1000
,
1000
0001
1000
0001
,
0001
0010
0100
0010
,
0010
0001
0000
1000
,
0000
1001
0010
0100
,
0010
0100
0001
0100
,
1000
0000
0010
0000
,
0100
0000
0001
0000
,
1000
0000
1000
0010
,
1010
0001
0010
0001
,
0011
0000
0001
0000
,
0100
0000
0010
0000
,
0001
0002
0000
0003
,
0000
0000
0010
0000
0000
0100
0000
0000
,
0000
2000
0000
3000
,
0000
0200
0000
0300
,
0010
1001
0000
0000
,
0000
0000
0010
0000
0000
1000
0000
0000
,
0001
0010
0010
1000
,
1000
0100
0100
0000
,
1000
0001
0100
0100
,
1000
0001
0100
0100
,
0010
1001
1000
0010
,
1000
0100
1000
0000
,
0001
0010
0010
0010
,
1000
0100
0100
0100
,
0001
0010
0001
0010
,
0001
0010
0001
0010
,
0001
0010
0000
0100
,
0000
1000
0000
1001
,
0000
0100
1000
0100
,
1000
0100
1000
0100
,
1000
0100
0000
0100
,
0000
0010
0000
1000
,
0000
0002
0000
0000
,
0003
0000
0000
0000;

//---------------dance-single - ANOTHER----------------
#NOTES:
     dance-single:
     ANOTHER:
     Medium:
     7:
     0.552,0.549,0.418,0.061,0.000,332.000,41.000,6.000,0.000,0.000:


0000
0000
0000
0000
,
0000
0000
0000
0000
,
0000
1000
1000
1000
,
1000
0100
0001
0000
0001
0000
0001
0000
,
0001
0010
0100
0000
0100
0000
0100
0000
,
0100
0001
0010
0000
0010
0000
0010
0000
,
0010
0100
1000
0000
1000
0000
1000
0000
,
1000
0010
0001
0000
0001
0000
0001
0000
,
0001
1000
0100
0000
0100
0000
0100
0000
,
0100
0000
1001
0000
0000
0110
0000
0000
,
1001
0000
0001
0000
0100
0000
0010
0100
,
0010
0000
1000
0000
0100
0000
0010
0100
,
0010
0000
1001
0000
1000
0100
1000
0000
,
0100
0000
0010
0100
0010
0000
1001
0000
,
0101
0000
0001
0000
0100
0000
0001
0100
,
0001
0000
1000
0000
0100
0000
1000
0100
,
1000
0000
1000
0000
0100
1000
0100
0000
,
0100
0000
0001
0010
0001
0000
1001
0000
,
1100
0000
1000
0000
0001
0000
1000
0001
,
1000
0000
0010
0000
0100
0000
0010
0100
,
0010
0000
0001
0000
0001
0010
0100
0000
,
1000
0000
1000
0100
0010
0000
0110
0000
,
1001
0000
0001
0000
1000
0000
0001
1000
,
0001
0000
0100
0000
0010
0000
0100
0010
,
0100
0000
1000
0000
1000
0100
0010
0000
,
0100
0000
0001
0010
0100
0000
1001
0000
,
0110
1000
1000
0100
,
0100
0000
0001
0000
0001
0000
0000
0001
,
1000
0001
1000
0000
1000
0001
0000
1000
,
0001
1000
0001
0000
0001
1000
0000
0000
,
1001
0001
0001
0010
,
0010
0000
1000
0000
1000
0000
0000
1000
,
0001
1000
0001
0000
1000
0001
0000
0001
,
1000
0001
1000
0000
0001
1000
0000
0000
,
0100
0110
0001
0010
,
0010
0000
1000
0000
1000
0000
0000
0100
,
0010
0100
0010
0000
0100
0010
0000
0010
,
0100
0010
0100
0000
0010
0100
0000
0000
,
1000
1001
0001
0010
,
0010
0000
0100
0000
0100
0000
0000
0001
,
1000
0001
1000
0000
0010
0100
0000
1000
,
0001
1000
0001
0000
0100
0010
0000
0000
,
1001
0010
0001
1001
,
1010
0001
0100
0101
,
1001
0100
1000
0011
,
0110
1000
0000
0100
,
0000
1001
1000
1000
,
0010
0010
0001
0001
,
1000
1001
0010
0100
,
0110
1000
0001
0010
,
1001
1000
1000
0001
,
0001
0010
0010
0100
,
0100
1001
0001
1000
,
1001
0010
0100
1001
,
0001
0000
0001
0010
0001
0010
0000
0000
,
0000
0000
0010
0000
0000
0010
0000
0000
,
0000
0000
1000
0100
1000
0100
0000
0000
,
0000
0000
0100
0010
0100
0010
0000
0000
,
0000
1001
0000
0000
,
0000
0000
0001
0000
0000
0100
0000
0000
,
1100
1000
1000
0001
,
0001
0000
0001
0000
1000
0000
0000
0001
,
1000
0001
1000
0000
0010
0100
0000
1000
,
0001
1000
0001
0000
0010
0100
0000
0000
,
1000
0110
0001
0001
,
1000
0000
1000
0000
0010
0000
0000
0100
,
0010
0100
0010
0000
0001
1000
0000
0010
,
0100
0010
0100
0000
1000
0001
0000
0000
,
0010
0012
0100
0010
,
0103
2010
0001
0010
,
3001
0000
0100
0000
1000
0010
0100
0000
,
0100
0000
0010
1000
0010
0000
0110
0000
,
0110
1020
0100
1000
,
0130
0021
0100
0001
,
0130
0000
0001
0000
0100
0001
0010
0000
,
0100
0000
0010
0001
0010
0000
0011
0000
,
1001
0220
0000
0000
,
0330
0000
0000
0000;

//---------------dance-single - MANIAC----------------
#NOTES:
     dance-single:
     MANIAC:
     Hard:
     9:
     0.719,0.667,0.295,0.020,0.000,463.000,29.000,2.000,0.000,0.000:


0000
0000
0000
0000
,
0000
0000
0000
0000
,
0000
0000
1000
0100
1000
0100
1000
0100
,
1000
0010
0001
0010
0001
0010
0001
0010
,
0001
1000
0010
1000
0010
1000
0010
1000
,
0010
0100
0001
0100
0001
0100
0001
0100
,
0001
1000
0001
1000
0001
1000
0001
1000
,
0001
0100
0010
0100
0010
0100
0010
0100
,
0010
1000
0001
1000
0001
1000
0001
1000
,
0001
0000
1001
0000
0000
1010
0000
0000
,
1100
0000
0010
1000
0100
0010
1000
0100
,
0010
0010
0001
0100
0010
0001
0100
0010
,
0001
0001
1001
0000
0100
1000
1000
0000
,
0010
0000
0001
0100
0010
0000
1001
0000
,
0101
0000
0001
0010
0100
0001
0010
0100
,
0001
0001
1000
0100
0010
1000
0100
0010
,
0100
0100
1001
0000
0100
0001
0001
0000
,
0010
0000
1000
0010
0100
0000
1001
0000
,
0101
0000
1000
0100
0001
0100
0010
0100
,
0010
1000
0001
0100
1000
0010
0100
0010
,
0100
0001
0101
0000
0001
0100
0100
0000
,
1000
0000
0010
0100
0001
0000
0110
0000
,
1001
0000
0001
0010
1000
0100
0010
0100
,
0010
0001
1000
0010
0001
0010
0100
0010
,
0100
1000
1100
0000
0001
0100
0100
0000
,
0010
0000
0100
0010
1000
0000
1001
0000
,
0110
0000
1000
0000
1000
0000
0100
1000
,
0100
1000
0000
0010
0010
0001
0000
0001
,
0010
0100
0010
0000
1000
0001
0000
0010
,
0100
0010
0100
0000
0001
1000
0000
0100
,
0010
1000
0001
0000
0001
0000
0001
0010
,
0001
0010
0000
0010
0100
0100
0000
1000
,
0010
0100
0001
0000
1000
0001
0000
0001
,
0100
0010
1000
0000
0001
1000
0000
0100
,
0100
0100
0010
0000
0110
0000
0001
0100
,
0001
0100
0000
0001
0010
0100
0000
1000
,
0001
1000
0010
0000
0100
0010
0000
0001
,
1000
0001
0100
0000
0010
0100
0000
0001
,
1000
1000
0001
0000
0001
0000
1000
0100
,
1000
0100
0000
1000
0100
0010
0000
0001
,
1000
0001
0100
0000
0010
0100
0000
1000
,
0001
1000
0010
0000
0100
0010
0000
1000
,
0001
0010
1000
0100
0001
0010
1000
0001
,
1000
0001
0010
1000
0010
0100
0001
1000
,
0001
1000
0010
0100
1000
0001
0010
0100
,
0010
0100
0001
0010
1000
0100
0010
0001
,
0100
0000
1001
0000
1000
1000
0000
0100
,
0010
0100
0010
0000
0001
0001
0000
0001
,
1000
0001
1000
0000
0010
0100
0000
0001
,
0100
0000
1000
0000
0100
0010
0000
0100
,
0010
0000
1000
0001
1000
0010
0000
1000
,
1010
0000
0001
0100
0010
1000
0000
0001
,
0101
0000
0001
1000
0001
1000
0000
0010
,
1000
0000
1000
0001
1000
0001
0000
0100
,
0001
0000
0001
0001
0001
0001
0000
0001
,
0100
0000
0010
0000
1000
0010
0000
0100
,
1000
0000
1000
1000
1000
1000
0000
1000
,
0100
0000
0100
0010
0010
0010
0000
0100
,
0001
1001
0000
0000
,
0000
0000
0101
0000
0000
1100
0000
0000
,
1001
0000
0010
0000
0010
0000
1000
0100
,
0001
0001
0000
1000
0001
1000
0000
0001
,
1000
0010
0100
0000
0100
0100
0000
0001
,
1000
0010
0100
0000
0010
0010
0000
0001
,
0100
0001
1001
0000
1000
0000
0001
0100
,
1000
1000
0000
0001
1000
0001
0000
1000
,
0001
0100
0010
0000
0010
0010
0000
0001
,
1000
0010
0100
0000
0100
0100
0000
1000
,
0001
1000
0010
0100
0001
0100
0010
0100
,
0001
0100
0010
0100
0001
0100
0010
0100
,
0001
0100
0010
0000
1000
0001
0100
0000
,
0010
0000
0001
1000
0001
0000
0011
0000
,
1001
0000
0100
1000
0100
0010
0100
1000
,
0100
0010
0100
1000
0100
0010
0100
1000
,
0100
0010
0100
0000
0001
1000
0100
0000
,
0001
0000
1000
0001
1000
0000
1010
0000
,
0011
0220
0000
0000
,
0330
0000
0000
0000;
